#TITLE:No buts!;
#SUBTITLE:とある魔術の禁書目録Ⅱ OP;
#ARTIST:川田まみ;
#TITLETRANSLIT:;
#SUBTITLETRANSLIT:;
#ARTISTTRANSLIT:;
#CREDIT:;
#BANNER:banner.png;
#BACKGROUND:bg.jpg;
#LYRICSPATH:;
#CDTITLE:cdtitle.png;
#MUSIC:No buts!.mp3;
#OFFSET:0.860;
#SAMPLESTART:52.336;
#SAMPLELENGTH:12.000;
#SELECTABLE:YES;
#BPMS:0.000=183.000,35.000=122.000,46.000=183.000,142.000=121.997,147.000=183.000,219.500=122.000,228.500=91.500,229.500=183.000;
#STOPS:228.500=0.160
,245.500=0.172
;
#BGCHANGES:1.860=OP.avi=1.000=1=1=0,
261.000=bg.jpg=1.000=1=0=1,
99999=-nosongbg-=1.000=0=0=0 // don't automatically add -songbackground-
;
// cache tags:
#FIRSTBEAT:3.500;
#LASTBEAT:261.000;
#SONGFILENAME:songs/Pack anime 1/No buts!/No buts!.sm;
#HASMUSIC:1;
#HASBANNER:1;
#MUSICLENGTH:89.913;
// end cache tags

//---------------dance-single - ----------------
#NOTES:
     dance-single:
     :
     Hard:
     6:
     1.000,1.000,1.000,1.000,0.239,462.000,170.000,95.000,0.000,1.000:
0000
0000
0000
0000
0000
0000
0000
0010
,
0100
0001
1000
0100
0010
0001
0100
0010
,
1000
0001
0100
1020
0130
2001
3010
0100
,
0001
1000
0010
0100
0001
1000
0100
0010
,
0100
0001
0010
2001
3100
2010
3100
0010
,
0100
1000
0100
0010
1000
0001
0100
0010
,
0100
0010
1000
0210
0301
2010
3100
0001
,
0100
0000
0010
0000
1000
0000
0001
0000
1000
0000
0100
0000
0001
0000
0100
1000
,
0010
0000
0000
0100
0000
0000
0001
0000
0000
1100
0000
0000
1100
0000
0000
1100
0000
0000
2100
0000
3010
0000
0000
0000
,
0100
0000
0001
0100
1000
0010
0100
1000
0100
0001
2020
3030
,
0202
0303
1010
1010
0100
1000
0010
0100
0001
1000
0100
0010
,
0100
0000
1000
0000
0202
0000
0303
0000
2020
0000
3030
0000
0101
0000
0000
0010
0000
0000
1000
0000
0000
0100
0000
0000
,
0001
1000
0100
0001
0010
0100
1000
0010
,
0202
0303
2020
3030
0101
1000
0010
0001
,
1000
0100
0001
0010
1000
0001
0010
0100
,
2020
3030
0202
0303
1010
0000
2002
3003
,
0220
0330
1010
0102
0013
1100
0012
1000
,
0100
1003
0110
0000
0010
0100
2020
3030
,
0202
0303
1010
0120
1030
0101
1002
0100
,
0010
0103
1010
0100
0001
1000
0202
0303
,
2020
3030
0101
1020
0130
1010
0102
0010
,
1000
0103
0011
1000
0102
1003
0010
0202
,
0300
0010
1000
0013
0100
1010
0100
0001
,
0010
0100
1000
0110
2020
3030
0101
2010
,
0100
0001
0010
0100
0001
0010
0100
0010
,
0002
0003
0020
3030
0101
1000
0001
0100
,
0010
0000
1000
0000
0001
0000
0010
0000
0100
0010
0001
0010
0100
1000
0100
0010
,
2200
3300
0022
0033
0101
0101
0000
1010
,
1010
0000
0110
0110
0000
1001
1001
0000
,
1010
0101
0110
1010
0101
0101
0000
1010
,
1010
0000
0110
0110
0000
1001
1001
0000
,
0101
0110
1010
0101
1010
0100
0001
1100
,
0010
0001
1100
0001
0110
0000
1001
0100
,
1010
0202
0000
0303
2010
0100
3001
0120
,
1000
0000
0130
0000
1010
0000
0100
0000
0010
1000
0100
0000
0011
0000
0100
0010
,
0100
0000
0000
1010
0000
0000
0101
0000
0000
1010
0000
0000
0101
0000
0000
0000
1010
0000
0202
0000
0000
0000
0000
0000
,
0000
0000
0000
0000
0000
0000
0000
0000
0000
0000
0000
0000
0000
0000
0000
0000
0000
0000
0000
0000
0000
0000
0000
0000
0000
0000
0000
0000
0000
0000
0000
0000
0000
0000
0000
0000
0000
0000
0000
0000
0000
0000
0000
0000
0000
0000
0000
0000
0303
0000
0000
0000
0000
0000
0000
0000
2020
3030
0000
0000
0000
0000
0000
0000
,
0220
0330
0000
0000
0000
0000
0000
0000
2002
3003
0000
0000
0000
0000
0000
0000
0000
0000
0000
0000
0000
0000
0000
0000
0220
0330
0000
0000
0000
0000
0000
0000
0000
0000
0000
0000
0000
0000
0000
0000
0202
0303
0000
0000
0000
0000
0000
0000
2020
3030
0000
0000
0000
0000
0000
0000
0001
0000
0000
0000
0000
0000
0000
0000
,
0100
0010
0100
0001
0100
1010
0110
1002
,
0100
0010
1000
0100
0013
1000
0100
0011
,
1100
0000
0110
0000
1010
0100
0000
1010
,
0010
0101
1010
0000
0101
0000
0110
0000
,
1010
0100
0001
1010
0100
1001
0000
1010
,
0100
0001
1010
0100
0011
0100
0010
0000
,
0000
0202
0303
2020
3030
0202
0303
1010
,
0000
0000
0101
0000
2020
0000
0030
0000
0001
0000
3100
0000
1010
0001
0100
0000
,
0101
0000
0110
0000
1010
0001
0100
2010
,
0001
0100
0010
0001
0100
3010
0100
0011
,
1100
0000
0110
0000
1010
0100
0000
0110
,
0001
1010
0110
0000
0101
0000
1001
0000
,
0110
1010
0000
0101
0000
0110
0000
2010
,
0001
0100
0010
0100
3001
0010
1100
0000
,
1000
0110
1000
0101
0100
1010
0100
0011
,
0100
0000
1010
0000
0202
0000
0300
0000
1000
0000
0103
0000
0001
0010
1100
0000
,
0110
0000
0000
0000
0000
0000
1010
0000
0000
0000
0000
0000
0110
0000
0000
0000
0000
0000
0000
0000
0000
2010
0000
0100
,
0000
0001
0000
0010
0000
0000
0000
0100
0000
0000
0000
0001
0000
0100
0000
0010
0000
0001
0000
0010
0000
3000
0000
0100
,
0000
1001
0000
0000
0000
0102
0000
1000
0000
0100
0000
0010
0000
0000
0000
0100
0000
0000
0000
0010
0000
0100
0000
1000
,
0000
0000
0100
0000
0000
0000
1013
0000
0000
0000
0000
0000
0100
0000
0000
1000
0000
0000
0101
0000
0000
0000
0000
0000
0010
0000
0000
0000
0000
0000
0100
0000
0000
0000
0000
0000
1000
0000
0000
0000
0000
0000
0001
0000
0000
0000
0000
0000
,
0100
0010
1000
0001
0010
0100
1000
0102
,
1003
0210
0301
1010
0100
0010
0100
1000
,
0100
0010
0100
1000
0100
0010
1001
0210
,
0301
1020
0130
0000
0100
0010
1000
0001
,
0100
0010
1000
0001
0100
0010
2100
3001
,
0120
1030
0001
0100
0010
1000
0001
0100
,
0010
1000
0100
0001
1000
0100
1020
0130
,
2001
3020
0030
0000
0000
0000
0000
0000
;

//---------------dance-single - ----------------
#NOTES:
     dance-single:
     :
     Challenge:
     9:
     1.000,1.000,1.000,0.968,0.589,582.000,221.000,87.000,0.000,8.000:
0000
0000
0000
0000
0000
0000
0000
1010
,
0100
0011
0100
1001
0100
1010
0100
0011
,
1000
0101
1000
0210
0301
2100
3010
0100
,
0010
0101
0010
1100
0010
1001
0100
0011
,
0100
1010
0100
2001
3010
0201
0310
1001
,
0010
1100
0001
1100
0010
1001
0010
0110
,
1000
0011
0100
2001
3100
0012
0103
1010
,
0001
0000
1010
0000
0100
0000
0011
0000
0100
0000
1010
0000
0100
0000
1001
0010
,
0100
0000
0000
1010
0000
0000
0100
0000
0000
1001
0000
0000
1001
0000
0000
1001
0000
0000
1001
0000
0010
0000
0100
0000
,
1000
0100
0001
0010
0100
0001
1000
0100
0010
0100
2002
3003
,
0220
0000
0330
0000
1001
0000
1001
0100
0010
0100
1000
0100
0010
0001
0010
0100
1000
0100
0010
0001
0010
0100
1000
0100
,
0010
0001
0010
0100
0012
0100
1003
0100
2020
0000
0000
3030
0011
0000
0000
0100
0000
0000
1010
0000
0000
0001
0000
0000
,
0110
0001
1010
0100
0011
0100
1001
0100
,
0202
0303
2020
3030
0101
0010
1010
0100
,
1010
0001
1010
0100
0011
1000
0101
0010
,
2002
3003
0220
0330
1001
0000
2001
3100
,
0210
0301
1100
0012
0103
1100
0012
0100
,
1000
0000
0103
0000
1010
0000
0001
0100
0010
0000
1000
0000
0210
0000
0301
0000
,
2010
3100
0011
1200
0301
1010
0102
1000
,
0100
0000
0013
0000
1100
0000
0001
0010
0100
0000
0010
0000
0201
0000
0310
0000
,
2001
3100
0011
1200
0301
1010
0102
1000
,
0010
0000
0103
0000
1001
0100
0010
0100
1020
0000
0130
0000
1000
0000
0102
0000
,
0010
0000
0100
0000
1000
0000
0103
0000
0010
0000
1100
0010
0001
0000
0100
1000
,
0100
0000
1000
0010
0100
0001
1010
0001
0210
0000
0301
0000
1010
0000
2001
0100
,
0010
0100
0001
0010
0100
0001
0010
0100
,
0002
0000
0013
0000
0200
0000
3310
0000
1001
0000
0100
0000
0010
0000
1000
0100
,
0010
0000
0100
0000
1000
0000
0100
0000
0010
0001
0100
0010
1000
0100
0010
1000
,
0201
0310
0102
0013
1002
0103
1000
0210
,
0310
1000
0102
0103
1000
0201
0301
0100
,
0011
1100
0110
1001
0120
0130
0001
1020
,
1030
0001
0210
0310
0001
2100
3100
0010
,
1100
0000
0110
0001
0010
0100
1000
0100
0011
0000
1000
0000
0010
0000
1010
0100
,
0010
0000
0100
0000
1010
0000
0100
0000
1001
0000
0010
0000
1100
0000
0001
0010
,
1100
0010
0102
1000
0100
0000
0013
0000
2100
0000
0010
0000
3001
0000
0210
0001
,
0010
0000
0301
0000
1010
0000
0001
0100
0010
0001
0010
0000
1001
0000
0100
0010
,
0100
0000
0000
1010
0000
0000
0101
0000
0000
1010
0000
0000
0101
0000
0000
0000
1100
0000
0022
0000
0030
0000
0100
0000
,
0100
0000
0000
0000
0000
0000
0000
0000
0000
0000
0000
0000
0000
0000
0000
0000
0100
0000
0000
0000
0000
0000
0000
0000
0000
0000
0000
0000
0000
0000
0000
0000
0100
0000
0000
0000
0000
0000
0000
0000
0000
0000
0000
0000
0000
0000
0000
0000
0100
0000
0000
0000
0000
0000
0000
0000
0000
0000
0000
0000
0000
0000
0000
0000
0100
0000
0000
0000
0000
0000
0000
0000
0000
0000
0000
0000
0000
0000
0000
0000
0100
0000
0000
0000
0000
0000
0000
0000
0000
0000
0000
0000
0000
0000
0000
0000
0100
0000
0000
0000
0000
0000
0000
0000
0000
0000
0000
0000
0000
0000
0000
0000
0100
0000
0000
0000
0000
0000
0000
0000
0000
0000
0000
0000
0000
0000
0000
0000
0100
0000
0000
0000
0000
0000
0000
0000
0000
0000
0000
0000
0000
0000
0000
0000
0103
0000
0000
0000
0000
0000
0000
0000
0000
0000
0000
0000
0000
0000
0000
0000
0000
0000
0000
0000
0000
0000
0000
0000
2002
0000
0000
3003
0000
0000
0000
0000
0000
0000
0000
0000
0000
0000
0000
0000
0000
0000
0000
0000
0000
0000
0000
0000
,
0220
0330
0000
0000
0000
0000
0000
0000
2002
3003
0000
0000
0000
0000
0000
0000
0000
0000
0000
0000
0000
0000
0000
0000
0220
0330
0000
0000
0000
0000
0000
0000
0000
0000
0000
0000
0000
0000
0000
0000
2002
3003
0000
0000
0000
0000
0000
0000
2002
3003
0000
0000
0000
0000
0000
0000
0010
0000
0000
0000
0000
0000
0000
0000
,
1000
0000
0100
0000
0010
0000
1000
0000
0100
0000
1001
0010
0100
1000
0102
0000
,
0010
0000
0100
0000
1000
0000
0100
0000
0013
0000
0100
0000
1000
0100
0011
0000
,
1010
0000
0100
0000
1010
0000
0100
0000
1010
0000
0110
0000
0001
0010
1100
0000
,
0010
0101
1001
0010
1100
0010
1001
0010
,
1100
0000
0100
0010
0001
0000
1010
0001
0010
0100
1010
0100
0010
0001
1010
0000
,
0100
0000
0010
0000
1001
0100
0010
0000
0101
0000
0010
0000
0100
0000
0001
0000
,
0100
0012
1003
0210
0301
0120
1030
0110
,
0001
0010
1100
0000
2002
0000
0003
0000
0010
0000
3001
0000
1100
0010
0001
0000
,
1001
0000
0000
0000
0110
0000
0000
0000
1010
0100
0010
0100
0010
0100
1002
0000
,
0100
0000
1000
0000
0100
0000
0010
0000
0100
0000
0013
0000
0100
1000
0101
0000
,
1100
0000
0010
0000
1100
0000
0010
0000
1001
0000
0010
0000
1000
0100
0011
0000
,
0100
1010
0101
1000
0110
1000
0101
1000
,
0101
0010
1001
0000
0010
0000
0101
1000
0100
0010
1100
0010
0001
0100
2010
0000
,
0100
0000
0010
0000
0001
0010
0100
0000
3010
0000
0001
0000
1010
0000
0100
0000
,
0010
0000
0101
0000
0010
0000
1001
0010
0100
0010
1100
0000
0001
0000
0110
0000
,
1000
0001
0110
0000
2002
0000
3000
0000
0010
0000
1003
0000
0100
0010
1100
0000
,
0011
0000
0000
0000
0000
0000
1001
0000
0000
0000
0000
0000
0110
0000
0000
0000
0000
0000
0000
0000
0000
2001
0000
0010
,
0000
0100
0000
0011
0000
0000
0000
0110
0000
0000
0000
0001
0000
0010
0000
0100
0000
0001
0000
0110
0000
3000
0000
0110
,
0000
1001
0000
0110
0000
1002
0000
0100
0000
1000
0000
0110
0000
0000
0000
1100
0000
0000
0000
1000
0000
0010
0000
0100
,
0000
0000
1000
0000
0000
0000
0113
0000
0000
0000
0000
0000
1000
0000
0000
0100
0000
0000
1001
0000
0000
0000
0000
0000
0010
0000
0000
0000
0000
0000
0101
0000
0000
0000
0000
0000
0010
0000
0000
0000
0000
0000
1001
0000
0000
0000
0000
0000
,
0010
0101
0010
1001
0100
0110
1000
0201
,
0310
2100
3010
0101
0010
1100
0010
1001
,
0010
1100
0001
1010
0001
0110
1001
0120
,
1030
0201
0310
0000
0011
0100
1010
0100
,
0011
0100
1010
0100
0011
0100
2001
3010
,
0201
0310
1001
0100
1010
0100
0011
0100
,
1001
0010
1100
0001
0110
1000
0012
0103
,
2010
3200
0300
0000
0000
0000
0000
0000
;

//---------------dance-single - ----------------
#NOTES:
     dance-single:
     :
     Medium:
     4:
     0.960,0.942,1.000,1.000,0.095,337.000,123.000,144.000,0.000,0.000:
0000
0000
0000
0000
0000
0000
0000
0100
,
0001
0010
1000
0001
0100
0010
1000
0001
,
0010
0100
1000
0202
0303
2020
3030
0100
,
0001
1000
0010
0001
1000
0100
0010
0001
,
0100
0010
0100
2002
3003
2020
3030
0001
,
0010
0100
1000
0100
1000
0010
1000
0100
,
0001
0010
1000
0022
0033
2200
3300
0010
,
0001
0010
0100
0010
1000
0001
0010
1000
,
0001
0000
0000
0010
0000
0000
0100
0000
0000
1010
0000
0000
1010
0000
0000
1010
0000
0000
2020
0000
3000
0030
0000
0000
,
0100
0000
0001
0000
1000
0000
0100
0000
0010
0000
2002
3003
,
0220
0330
1001
1001
0100
0000
0010
0000
0001
0000
1000
0000
,
0001
0000
0000
0000
0220
0000
0330
0000
2002
0000
3003
0000
0001
0000
0000
0010
0000
0000
0100
0000
0000
1000
0000
0000
,
0100
0001
0010
1000
0100
0001
0100
0010
,
2002
3003
0220
0330
0001
0100
1000
0100
,
0001
0100
0010
0100
0001
1000
0100
0010
,
2002
3003
0220
0330
1001
0000
2020
3030
,
0202
0303
0010
0202
0303
1000
0022
0000
,
0000
0033
0100
1000
0010
0000
2002
3003
,
0220
0330
1000
0220
0330
1000
0202
0000
,
0000
0303
1010
0000
0010
1000
0220
0330
,
2002
3003
0100
0022
0033
0100
2002
0000
,
0000
3003
0010
1000
0202
0303
0000
2020
,
0000
0000
0000
3030
0000
1000
0100
0010
,
1000
0100
0010
0001
2000
3000
0100
2020
,
0000
0000
0000
0000
,
0000
0000
0000
3030
0100
0010
1000
0001
,
0010
0100
1000
0001
0010
0100
1000
0010
,
2002
3003
0202
0303
2020
0000
3030
0202
,
0000
0303
2020
0000
3030
0000
0101
0000
,
1010
0202
0000
0303
2020
3030
0000
0220
,
0330
0000
0202
0000
0303
0000
2002
3003
,
0010
2200
3300
0000
0202
0303
0010
2200
,
3300
0001
2020
3030
0100
0000
1001
0000
,
1010
0202
0000
0303
0220
0330
1000
0202
,
0303
0000
0010
0000
1001
0000
0100
0000
0010
1000
0100
0000
0001
0000
0100
0010
,
0100
0000
0000
1000
0000
0000
0001
0000
0000
0010
0000
0000
1100
0000
0000
0000
0010
0000
0202
0000
0000
0000
0000
0000
,
0000
0000
0000
0000
0000
0000
0000
0000
0000
0000
0000
0000
0000
0000
0000
0000
0000
0000
0000
0000
0000
0000
0000
0000
0000
0000
0000
0000
0000
0000
0000
0000
0000
0000
0000
0000
0000
0000
0000
0000
0000
0000
0000
0000
0000
0000
0000
0000
0303
0000
0000
0000
0000
0000
0000
0000
2002
3003
0000
0000
0000
0000
0000
0000
,
2002
3003
0000
0000
0000
0000
0000
0000
2002
3003
0000
0000
0000
0000
0000
0000
0000
0000
0000
0000
0000
0000
0000
0000
2002
3003
0000
0000
0000
0000
0000
0000
0000
0000
0000
0000
0000
0000
0000
0000
2002
3003
0000
0000
0000
0000
0000
0000
2002
3003
0000
0000
0000
0000
0000
0000
0000
0000
0000
0000
0000
0000
0000
0000
,
0000
0000
0000
0000
0000
0010
0100
2002
,
3000
0010
0000
0100
0003
1000
0000
0101
,
1010
0000
0101
0000
1001
0000
0000
1010
,
0000
0100
1001
0000
0011
0000
0110
0000
,
1100
0010
0100
0010
0100
1001
0000
0010
,
0100
0010
1001
0000
0011
0000
0100
0000
,
0000
0202
0303
2020
3030
2002
3003
0110
,
0000
0000
0100
0000
2020
0000
0030
0000
0001
0000
3100
0000
0010
0001
1000
0000
,
0101
0000
0110
0000
1010
0000
0000
2020
,
0030
0100
0000
0001
0000
3100
0000
0101
,
1010
0000
1001
0000
0110
0000
0000
0110
,
0000
1000
0101
0000
1001
0000
0101
0000
,
0100
1010
0000
1001
0000
0110
0000
2010
,
0100
0010
0001
0000
3100
0000
1010
0000
,
0000
0110
0000
1001
0000
0110
0000
0011
,
0000
0000
0110
0000
2002
0000
3000
0000
0100
0000
1003
0000
0010
0100
1000
0000
,
0101
0000
0110
0000
1010
0000
0000
2020
,
0000
0000
0000
0000
0000
0000
0000
3030
,
0000
1001
0000
0000
0000
0202
0000
0000
0000
0000
0000
0000
0000
0000
0000
0000
0000
0000
0000
0000
0000
0000
0000
0000
,
0000
0000
0303
1010
0000
0000
0000
0000
0000
0100
0000
0000
0001
0000
0000
0010
0000
0000
1000
0000
0000
0100
0000
0000
,
0001
0010
0100
0010
1000
0001
0010
2200
,
3300
0022
0033
1000
0001
0010
0100
1000
,
0001
1000
0010
0100
0001
0100
0001
0220
,
0330
2020
3030
0000
1000
0010
0100
0001
,
1000
0100
0010
0100
1000
0100
0022
0033
,
2200
3300
0010
0100
0001
1000
0100
0010
,
1000
0001
0100
0010
0001
0100
2020
3030
,
0202
0303
0000
0000
0000
0000
0000
0000
;
